Peter Rabbit 2018 READ INFO 720p WEB-DL Torrent Free Download

Seeders : 651   &   Leechers : 971      17-04-2018 (1 week)
Peter Rabbit 2018 READ INFO 720p WEB-DL Torrent Download
Added: ago by LifeLongg ***** in Movies   894.8 MB   Hits : 18
Info Hash: 1E91E2DD42BC86FCE0CC8BC54532BD98F63BC8BF Download
Peter Rabbit 2018 READ INFO 720p WEB-DL Torrent Download

Anonymous and Direct Download movies , software , shows...

Fast Safe Anonymous
movies, software, shows...
Peter Rabbit
Animation /Adventure /Comedy  .   95 min   6.4/10
Director : Will Gluck  
Tags: Peter  Rabbit    2018  READ  INFO  

Released:
09 Feb 2018
Feature adaptation of Beatrix Potter's classic tale of a rebellious rabbit trying to sneak into a farmer's vegetable garden.

Torrent Description







******************************Thumbnail:**********************



******************************Screenshots:********************

Screenshot 1

Screenshot 2

Screenshot 3

Screenshot 4

Screenshot 5

Screenshot 6

Screenshot 7

Screenshot 8

Screenshot 9

Screenshot 0

**************************************************************

Note :Clear Cam audio

Complete name : Peter.Rabbit..2018.READ.INFO.720p.WEB-DL.H264.AC3.LLG.mp4
Format : MPEG-4
Format profile : Base Media
Codec ID : isom (isom/iso2/avc1/mp41)
File size : 884 MiB
Duration : 1 h 34 min
Overall bit rate : 1 306 kb/s
Writing application : Lavf57.56.101

Video
ID : 1
Format : AVC
Format/Info : Advanced Video Codec
Format profile : [email protected]
Format settings : CABAC / 4 Ref Frames
Format settings, CABAC : Yes
Format settings, RefFrames : 4 frames
Codec ID : avc1
Codec ID/Info : Advanced Video Coding
Duration : 1 h 34 min
Bit rate : 1 200 kb/s
Width : 1 280 pixels
Height : 530 pixels
Display aspect ratio : 2.40:1
Frame rate mode : Constant
Frame rate : 29.970 (29970/1000) FPS
Color space : YUV
Chroma subsampling : 4:2:0
Bit depth : 8 bits
Scan type : Progressive
Bits/(Pixel*Frame) : 0.059
Stream size : 794 MiB (90%)

Audio
ID : 2
Format : AC-3
Format/Info : Audio Coding 3
Codec ID : ac-3
Duration : 1 h 34 min
Bit rate mode : Constant
Bit rate : 128 kb/s
Channel(s) : 2 channels
Channel positions : Front: L R
Sampling rate : 48.0 kHz
Frame rate : 31.250 FPS (1536 SPF)
Bit depth : 16 bits
Compression mode : Lossy
Stream size : 86.6 MiB (10%)
Language : English
Service kind : Complete Main
Default : Yes
Alternate group : 1




Sharing Widget


No Comments For This Torrent . Be The First to Comment

You must Login to Comment . Click Here to Login

Menu 1

Some content in menu 1.

Peter Rabbit 2018 READ INFO 720p WEB-DL H264 AC3 LLG (Size: 894.8 MB)
  Peter Rabbit 2018 READ INFO 720p WEB-DL H264 AC3 LLG 894.8 MB
tracker name
udp://tracker.leechers-paradise.org:6969/announce
udp://zer0day.ch:1337/announce
udp://open.demonii.com:1337/announce
udp://tracker.coppersurfer.tk:6969/announce
udp://exodus.desync.com:6969/announce
µTorrent compatible trackers list

Relative Torrents

Torrent Name Size Age SEED LEECH
www Torrenting com - The Crossing S01E04HDTV x264-KILLERS
Posted by    iDope   in   TV
275.4 MB 41 seconds 385 383
The Good Fight s02e06 WEBDLRip NewStudioTV avi
Posted by    iDope   in   TV
700.2 MB 41 seconds 321 801
Grisham, John - Legitima defensa [12901](r1 3) epub
Posted by    iDope   in   Books
761.0 KB 41 seconds 11 843
[ www Torrenting com ] - Bones S09E10 72p HDTV X264-DIMENSION
Posted by    iDope   in   TV
1.3 GB 41 seconds 116 482
Vivaldi 1 15 1147 36 Stable
Posted by    iDope   in   Apps
94.6 MB 41 seconds 337 129