Justice League (2017) 1080p BluRay x264 Torrent Free Download

Seeders : 268   &   Leechers : 986      14-03-2018 (4 months)
Justice League (2017) 1080p BluRay x264 Torrent Download
Added: ago by TheFighter ***** in Movies   3.3 GB   Hits : 38
Info Hash: D5B03F868F573BACD53E6BFAA39EEF81A97812BC Download
Justice League (2017) 1080p BluRay x264 Torrent Download

Anonymous and Direct Download movies , software , shows...

Fast Safe Anonymous
movies, software, shows...
Justice League
Action /Adventure /Fantasy  .   120 min   6.6/10
Starring : Ben Affleck  Henry Cavill  Amy Adams  Gal Gadot  
Director : Zack Snyder  
Tags: Justice  League  (2017)  1080p  BluRay  x264  

Released:
17 Nov 2017
Fueled by his restored faith in humanity and inspired by Superman's selfless act, Bruce Wayne enlists the help of his newfound ally, Diana Prince, to face an even greater enemy. Together, Batman and Wonder Woman work quickly to find and recruit a team of metahumans.... See More to stand against this newly awakened threat. But despite the formation of this unprecedented league of heroes-Batman, Wonder Woman, Aquaman, Cyborg and The Flash-it may already be too late to save the planet from an assault of catastrophic proportions.

Torrent Description









Join Me On Facebook For Latest Update.

TJustice League (2017) 1080p BluRay x264 Dual Audio [Hindi DD5.1 + English DD5.1] - Msubs ~ Ranvijay [Exclusive]

Thanks To Rohit For Hindi Audio

Format : Matroska
Format version : Version 4 / Version 2
File size : 3.28 GiB
Duration : 2 h 0 min
Overall bit rate : 3 909 kb/s
Movie name : Justice League (2017) 1080p BluRay x264 Dual Audio [Hindi DD5.1 + English DD5.1] - Msubs ~ Ranvijay

Video
ID : 1
Format : AVC
Format/Info : Advanced Video Codec
Format profile : [email protected]
Format settings : CABAC / 4 Ref Frames
Format settings, CABAC : Yes
Format settings, RefFrames : 4 frames
Codec ID : V_MPEG4/ISO/AVC
Duration : 2 h 0 min
Bit rate : 3 001 kb/s
Width : 1 920 pixels
Height : 1 080 pixels
Display aspect ratio : 16:9
Frame rate mode : Constant
Frame rate : 23.976 (24000/1001) FPS
Color space : YUV
Chroma subsampling : 4:2:0
Bit depth : 8 bits
Scan type : Progressive
Bits/(Pixel*Frame) : 0.060
Stream size : 2.52 GiB (77%)
Title : ~Ranvijay~
Language : English
Default : Yes
Forced : No

Audio #1
ID : 2
Format : AC-3
Format/Info : Audio Coding 3
Codec ID : A_AC3
Duration : 2 h 0 min
Bit rate mode : Constant
Bit rate : 448 kb/s
Channel(s) : 6 channels
Channel positions : Front: L C R, Side: L R, LFE
Sampling rate : 48.0 kHz
Frame rate : 31.250 FPS (1536 SPF)
Bit depth : 16 bits
Compression mode : Lossy
Stream size : 385 MiB (11%)
Title : ~Ranvijay~
Language : Hindi
Service kind : Complete Main
Default : Yes
Forced : No

Audio #2
ID : 3
Format : AC-3
Format/Info : Audio Coding 3
Codec ID : A_AC3
Duration : 2 h 0 min
Bit rate mode : Constant
Bit rate : 448 kb/s
Channel(s) : 6 channels
Channel positions : Front: L C R, Side: L R, LFE
Sampling rate : 48.0 kHz
Frame rate : 31.250 FPS (1536 SPF)
Bit depth : 16 bits
Compression mode : Lossy
Stream size : 385 MiB (11%)
Title : ~Ranvijay~
Language : English
Service kind : Complete Main
Default : No
Forced : No

Text #1
ID : 4
Format : UTF-8
Codec ID : S_TEXT/UTF8
Codec ID/Info : UTF-8 Plain Text
Duration : 1 h 58 min
Bit rate : 42 b/s
Count of elements : 1233
Stream size : 36.5 KiB (0%)
Title : ~Ranvijay~
Language : English
Default : No
Forced : No

Text #2
ID : 5
Format : UTF-8
Codec ID : S_TEXT/UTF8
Codec ID/Info : UTF-8 Plain Text
Duration : 1 h 58 min
Bit rate : 48 b/s
Count of elements : 1490
Stream size : 42.0 KiB (0%)
Title : ~Ranvijay~
Language : English
Default : No
Forced : No

Text #3
ID : 6
Format : UTF-8
Codec ID : S_TEXT/UTF8
Codec ID/Info : UTF-8 Plain Text
Duration : 1 h 58 min
Bit rate : 68 b/s
Count of elements : 1507
Stream size : 59.4 KiB (0%)
Title : ~Ranvijay~
Language : English
Default : No
Forced : No

Text #4
ID : 7
Format : PGS
Muxing mode : zlib
Codec ID : S_HDMV/PGS
Codec ID/Info : Picture based subtitle format used on BDs/HD-DVDs
Duration : 1 h 59 min
Bit rate : 30.8 kb/s
Count of elements : 3014
Stream size : 26.2 MiB (1%)
Title : ~Ranvijay~
Language : English
Default : No
Forced : No

Text #5
ID : 8
Format : PGS
Muxing mode : zlib
Codec ID : S_HDMV/PGS
Codec ID/Info : Picture based subtitle format used on BDs/HD-DVDs
Duration : 1 h 57 min
Bit rate : 719 b/s
Count of elements : 62
Stream size : 621 KiB (0%)
Title : ~Ranvijay~
Language : Hindi
Default : Yes
Forced : No

Menu
00:00:00.000 : en:Chapter 1
00:10:56.155 : en:Chapter 2
00:19:16.488 : en:Chapter 3
00:30:41.673 : en:Chapter 4
00:40:19.667 : en:Chapter 5
00:49:56.535 : en:Chapter 6
01:01:26.891 : en:Chapter 7
01:09:41.552 : en:Chapter 8
01:19:18.587 : en:Chapter 9
01:30:34.512 : en:Chapter 10
01:40:33.569 : en:Chapter 11
01:48:43.058 : en:Chapter 12

















Sharing Widget


No Comments For This Torrent . Be The First to Comment

You must Login to Comment . Click Here to Login

Menu 1

Some content in menu 1.

Justice League (2017) 1080p BluRay x264 Dual Audio [Hindi DD5 1 + Engl (Size: 3.3 GB)
  Justice League (2017) 1080p BluRay x264 Dual Audio [Hindi DD5 1 + Engl 3.3 GB
tracker name
udp://tracker.leechers-paradise.org:6969/announce
udp://zer0day.ch:1337/announce
udp://open.demonii.com:1337/announce
udp://tracker.coppersurfer.tk:6969/announce
udp://exodus.desync.com:6969/announce
µTorrent compatible trackers list

Relative Torrents

Torrent Name Size Age SEED LEECH
Nabor_obnovleniy_UpdatePack7R2_18 7 20_YQAL0 exe
Posted by    iDope   in   Apps
1.2 MB 5 minutes 419 160
www Speed cd - High School DxD Hero S01E5 720p WEB x264-ANiURL
Posted by    iDope   in   TV
428.6 MB 5 minutes 85 468
MP3-daily-2018-June-24-Noise
Posted by    iDope   in   Music
56.1 MB 5 minutes 919 584
Need_for_Speed_Most_Wanted_H6EV1X exe
Posted by    iDope   in   Apps
1.2 MB 5 minutes 639 686
The_Hundred_s5_WEB-DLRip720p_x264_LostFim_[NNM-CLUB]
Posted by    iDope   in   Video
12.6 GB 5 minutes 632 207