Jaan (1996) DVDRip 576p Hindi H 264 ACC Torrent Free Download

Seeders : 86   &   Leechers : 923      16-04-2018 (3 months)
Jaan (1996) DVDRip 576p Hindi H 264 ACC Torrent Download
Added: ago by LHDM ***** in Movies   1.4 GB   Hits : 27
Info Hash: A8FED9D2C52731E060A90D265B61497627CF6056 Download
Jaan (1996) DVDRip 576p Hindi H 264 ACC Torrent Download

Anonymous and Direct Download movies , software , shows...

Fast Safe Anonymous
movies, software, shows...
Jaan
Action /Romance  .   170 min   3.9/10
Director : Raj Kanwar  
Tags: Jaan  (1996)  DVDRip  576p  Hindi  H  

Released:
N/A
Police Commisioner Suryadev Singh appoints Karan as Kajal's bodyguard as she is facing danger from Vishamber. But the truth is, Karan is Vishamber's man who is sent to kill Kajal.

Torrent Description







[[>>SAMPLE<<]]
http://openload.co/f/PNuObA3o73I/vlc-record-2018-04-16-19h52m24s-LatestHDMovies___TeamSHAHID-.avi







General
Unique ID : 183945743043124115213968822289915960212 (0x8A62A955E5953C0E3D621AA954FFDB94)
Complete name : C:\Users\SHAHID\Downloads\Video\Jaan (1996) DVDRip 576p Hindi H.264 ACC - LatestHDMovies.mkv
Format : Matroska
Format version : Version 4 / Version 2
File size : 1.35 GiB
Duration : 2 h 49 min
Overall bit rate : 1 142 kb/s
Movie name : LatestHDMovies | TeamSHAHID
Encoded date : UTC 2018-04-16 14:46:00
Writing application : mkvmerge v21.0.0 ('Tardigrades Will Inherit The Earth') 32-bit
Writing library : libebml v1.3.5 + libmatroska v1.4.8
Cover : Yes
Attachments : Cover.jpg

Video
ID : 1
Format : MPEG-4 Visual
Format profile : Advanced [email protected]
Format settings : BVOP2
Format settings, BVOP : 2
Format settings, QPel : No
Format settings, GMC : No warppoints
Format settings, Matrix : Default (H.263)
Codec ID : V_MS/VFW/FOURCC / XVID
Codec ID/Hint : XviD
Duration : 2 h 49 min
Bit rate : 1 012 kb/s
Width : 576 pixels
Height : 256 pixels
Display aspect ratio : 2.25:1
Frame rate mode : Constant
Frame rate : 29.970 (30000/1001) FPS
Color space : YUV
Chroma subsampling : 4:2:0
Bit depth : 8 bits
Scan type : Progressive
Compression mode : Lossy
Bits/(Pixel*Frame) : 0.229
Stream size : 1.20 GiB (89%)
Title : LatestHDMovies - TeamSHAHID
Writing library : XviD 1.2.1 (UTC 2008-12-04)
Default : Yes
Forced : No

Audio
ID : 2
Format : AC-3
Format/Info : Audio Coding 3
Codec ID : A_AC3
Duration : 2 h 49 min
Bit rate mode : Constant
Bit rate : 128 kb/s
Channel(s) : 6 channels
Channel positions : Front: L C R, Side: L R, LFE
Sampling rate : 48.0 kHz
Frame rate : 31.250 FPS (1536 SPF)
Bit depth : 16 bits
Compression mode : Lossy
Stream size : 155 MiB (11%)
Title : LatestHDMovies - TeamSHAHID
Language : Hindi
Service kind : Complete Main
Default : Yes
Forced : No







Sharing Widget


No Comments For This Torrent . Be The First to Comment

You must Login to Comment . Click Here to Login

Menu 1

Some content in menu 1.

Jaan (1996) DVDRip 576p Hindi H 264 ACC - LatestHDMovies (Size: 1.4 GB)
  Jaan (1996) DVDRip 576p Hindi H 264 ACC - LatestHDMovies 1.4 GB
tracker name
udp://tracker.leechers-paradise.org:6969/announce
udp://zer0day.ch:1337/announce
udp://open.demonii.com:1337/announce
udp://tracker.coppersurfer.tk:6969/announce
udp://exodus.desync.com:6969/announce
µTorrent compatible trackers list

Relative Torrents

Torrent Name Size Age SEED LEECH
[180718] TVアニメ「音楽少女」ャラクターソング「terzetto rha
Posted by    iDope   in   Music
43.9 MB 4 minutes 949 178
Alexa Grey - Rodney Moore 960x540 mp4
Posted by    iDope   in   Video
686.8 MB 4 minutes 292 692
True Crimes 2018 BDRip-AVC mkv
Posted by    iDope   in   Movies
1.4 GB 4 minutes 437 815
NOVYIE_KARTYIFEVRAL_2018__KLESH_ROYAL_PRVATNYIY_SERVER_NBL3D7 exe
Posted by    iDope   in   Apps
1.2 MB 4 minutes 529 578
9-29 (6)
Posted by    iDope   in   Video
531.9 MB 4 minutes 721 483