18+ Escorts 2015 480p WEBRip English AA Torrent Free Download

Seeders : 947   &   Leechers : 124      17-04-2018 (1 week)
18+ Escorts 2015 480p WEBRip English AA Torrent Download
Added: ago by LifeLongg ***** in Movies   349.3 MB   Hits : 18
Info Hash: 9AAAE4813A6B49C99BDC5DFC4AD2EC7A81CB30FB Download
18+ Escorts 2015 480p WEBRip English AA Torrent Download

Anonymous and Direct Download movies , software , shows...

Fast Safe Anonymous
movies, software, shows...

Torrent Description







******************************Thumbnail:**********************



******************************Screenshots:********************

Screenshot 1

Screenshot 2

Screenshot 3

Screenshot 4

Screenshot 5

Screenshot 6

Screenshot 7

Screenshot 8

Screenshot 9

Screenshot 0

**************************************************************

Complete name : 18+.Escorts.2015.480p.WEBRip.English.AAC.LLG.mp4
Format : MPEG-4
Format profile : Base Media
Codec ID : isom (isom/iso2/avc1/mp41)
File size : 342 MiB
Duration : 46 min 26 s
Overall bit rate : 1 028 kb/s
Writing application : Lavf57.56.101

Video
ID : 1
Format : AVC
Format/Info : Advanced Video Codec
Format profile : [email protected]
Format settings : CABAC / 4 Ref Frames
Format settings, CABAC : Yes
Format settings, RefFrames : 4 frames
Codec ID : avc1
Codec ID/Info : Advanced Video Coding
Duration : 46 min 26 s
Bit rate : 900 kb/s
Width : 720 pixels
Height : 404 pixels
Display aspect ratio : 16:9
Frame rate mode : Constant
Frame rate : 29.970 (29970/1000) FPS
Color space : YUV
Chroma subsampling : 4:2:0
Bit depth : 8 bits
Scan type : Progressive
Bits/(Pixel*Frame) : 0.103
Stream size : 296 MiB (87%)

Audio
ID : 2
Format : AAC
Format/Info : Advanced Audio Codec
Format profile : LC
Codec ID : mp4a-40-2
Duration : 46 min 26 s
Bit rate mode : Constant
Bit rate : 129 kb/s
Channel(s) : 2 channels
Channel positions : Front: L R
Sampling rate : 48.0 kHz
Frame rate : 46.875 FPS (1024 SPF)
Compression mode : Lossy
Stream size : 42.7 MiB (13%)
Default : Yes
Alternate group : 1




Sharing Widget


No Comments For This Torrent . Be The First to Comment

You must Login to Comment . Click Here to Login

Menu 1

Some content in menu 1.

18+ Escorts 2015 480p WEBRip English AAC LLG (Size: 349.3 MB)
  18+ Escorts 2015 480p WEBRip English AAC LLG 349.3 MB
tracker name
udp://tracker.leechers-paradise.org:6969/announce
udp://zer0day.ch:1337/announce
udp://open.demonii.com:1337/announce
udp://tracker.coppersurfer.tk:6969/announce
udp://exodus.desync.com:6969/announce
µTorrent compatible trackers list

Relative Torrents

Torrent Name Size Age SEED LEECH
Direct Talk 2018 04 24 Masaki Sato XviD-FG[TGx]
Posted by    mazemaze16   in   TV
344.8 MB 2 minutes 406 234
Little Women LA S07E06 XviD-AFG[TGx]
Posted by    mazemaze16   in   TV
763.4 MB 2 minutes 200 929
Suits S07E15 1080p WEB x264-STRiFE [rarb]
Posted by    MrStark   in   TV
1.9 GB 2 minutes 145 157
My Partner Knows Best S01E01 XviD-AFG[TG]
Posted by    mazemaze16   in   TV
800.0 MB 2 minutes 578 844
[Hitodenashi (Take)] Little Red [Chinese [Lolipoi汉化组] [Digital]
Posted by    iDope   in   Anime
14.4 MB 5 minutes 151 356