12 Strong 2018 720p WEBRip x264 AAC LLG Torrent Free Download

Seeders : 98   &   Leechers : 835      17-04-2018 (1 week)
12 Strong 2018 720p WEBRip x264 AAC LLG Torrent Download
Added: ago by LifeLongg ***** in Movies   937.3 MB   Hits : 23
Info Hash: 5865E47193ABA3F00269F7C1BF07B5573D4FCBAF Download
12 Strong 2018 720p WEBRip x264 AAC LLG Torrent Download

Anonymous and Direct Download movies , software , shows...

Fast Safe Anonymous
movies, software, shows...

Torrent Description







******************************Thumbnail:**********************



******************************Screenshots:********************

Screenshot 1

Screenshot 2

Screenshot 3

Screenshot 4

Screenshot 5

Screenshot 6

Screenshot 7

Screenshot 8

Screenshot 9

Screenshot 0

**************************************************************

Complete name : 12.Strong.2018.720p.WEBRip.x264.AAC.LLG.mp4
Format : MPEG-4
Format profile : Base Media
Codec ID : isom (isom/iso2/avc1/mp41)
File size : 930 MiB
Duration : 2 h 9 min
Overall bit rate : 1 001 kb/s
Writing application : Lavf57.56.101

Video
ID : 1
Format : AVC
Format/Info : Advanced Video Codec
Format profile : [email protected]
Format settings : CABAC / 4 Ref Frames
Format settings, CABAC : Yes
Format settings, RefFrames : 4 frames
Codec ID : avc1
Codec ID/Info : Advanced Video Coding
Duration : 2 h 9 min
Bit rate : 900 kb/s
Width : 1 280 pixels
Height : 534 pixels
Display aspect ratio : 2.40:1
Original display aspect ratio : 2.40:1
Frame rate mode : Constant
Frame rate : 23.976 (23976/1000) FPS
Color space : YUV
Chroma subsampling : 4:2:0
Bit depth : 8 bits
Scan type : Progressive
Bits/(Pixel*Frame) : 0.055
Stream size : 804 MiB (87%)

Audio
ID : 2
Format : AAC
Format/Info : Advanced Audio Codec
Format profile : LC
Codec ID : mp4a-40-2
Duration : 2 h 9 min
Duration_LastFrame : -16 ms
Bit rate mode : Constant
Bit rate : 129 kb/s
Channel(s) : 2 channels
Channel positions : Front: L R
Sampling rate : 48.0 kHz
Frame rate : 46.875 FPS (1024 SPF)
Compression mode : Lossy
Stream size : 120 MiB (13%)
Default : Yes
Alternate group : 1




Sharing Widget


No Comments For This Torrent . Be The First to Comment

You must Login to Comment . Click Here to Login

Menu 1

Some content in menu 1.

12 Strong 2018 720p WEBRip x264 AAC LLG (Size: 937.3 MB)
  12 Strong 2018 720p WEBRip x264 AAC LLG 937.3 MB
tracker name
udp://tracker.leechers-paradise.org:6969/announce
udp://zer0day.ch:1337/announce
udp://open.demonii.com:1337/announce
udp://tracker.coppersurfer.tk:6969/announce
udp://exodus.desync.com:6969/announce
µTorrent compatible trackers list

Relative Torrents

Torrent Name Size Age SEED LEECH
Abelssoft YouTube Song Downloader 2018 v8 59
Posted by    iDope   in   Apps
10.5 MB 20 seconds 992 112
www torrenting com - Macbeth 2018 1080pWEB-DL H264 AC3-EVO
Posted by    iDope   in   Video
4.2 GB 20 seconds 359 243
Shadowhunters S03E06 A Window Into an Emty Room 720p AMZN WEBRip DDP5 1 x264-NT
Posted by    mazemaze16   in   TV
1.7 GB 1 minute 182 752
VA-Big_City_Beats_Vol 28_World_Club_DomeEdition_-3CD-2018-VOiCE
Posted by    iDope   in   Music
417.4 MB 6 minutes 560 842
www Torrenting com - Irrational Fears S0E02 720p WEB x264-CookieMonster
Posted by    iDope   in   TV
34.0 MB 6 minutes 782 883