10x10 2018 1080p BluRay AC3 5 1 x264 [MW Torrent Free Download

Seeders : 686   &   Leechers : 698      10-08-2018 (1 week)
10x10 2018 1080p BluRay AC3 5 1 x264 [MW Torrent Download
Added: ago by moviezworldz ***** in Movies   2.0 GB   Hits : 17
Info Hash: 2AD224CB35ECF64C5A41442E5B1C49CD0830E2D4 Download
10x10 2018 1080p BluRay AC3 5 1 x264 [MW Torrent Download

Anonymous and Direct Download movies , software , shows...

Fast Safe Anonymous
movies, software, shows...

Torrent Description







General
Format : Matroska
Format version : Version 4 / Version 2
File size : 2.04 GiB
Duration : 1 h 26 min
Overall bit rate : 3 352 kb/s

Video
ID : 1
Format : AVC
Format/Info : Advanced Video Codec
Format profile : [email protected]
Format settings : CABAC / 4 Ref Frames
Format settings, CABAC : Yes
Format settings, RefFrames : 4 frames
Codec ID : V_MPEG4/ISO/AVC
Duration : 1 h 26 min
Bit rate : 3 000 kb/s
Width : 1 920 pixels
Height : 720 pixels
Display aspect ratio : 2.667
Frame rate mode : Constant
Frame rate : 23.976 (24000/1001) FPS
Color space : YUV
Chroma subsampling : 4:2:0
Bit depth : 8 bits
Scan type : Progressive
Bits/(Pixel*Frame) : 0.091
Stream size : 1.76 GiB (87%)
Writing library : x264 core 155 r2901 7d0ff22
Default : Yes
Forced : No

Audio
ID : 2
Format : AC-3
Format/Info : Audio Coding 3
Codec ID : A_AC3
Duration : 1 h 26 min
Bit rate mode : Constant
Bit rate : 448 kb/s
Channel(s) : 6 channels
Channel positions : Front: L C R, Side: L R, LFE
Sampling rate : 48.0 kHz
Frame rate : 31.250 FPS (1536 SPF)
Bit depth : 16 bits
Compression mode : Lossy
Stream size : 279 MiB (13%)
Language : English
Service kind : Complete Main
Default : Yes
Forced : No

Text
ID : 3
Format : VobSub
Muxing mode : zlib
Codec ID : S_VOBSUB
Codec ID/Info : Picture based subtitle format used on DVDs
Duration : 1 h 21 min
Bit rate : 2 773 b/s
Count of elements : 682
Stream size : 1.61 MiB (0%)
Language : English
Default : Yes
Forced : No

Menu
00:00:00.000 : en:00:00:00.000
00:12:33.419 : en:00:12:33.419
00:22:06.450 : en:00:22:06.450
00:33:43.438 : en:00:33:43.438
00:43:04.582 : en:00:43:04.582
00:53:44.805 : en:00:53:44.805
01:06:08.965 : en:01:06:08.965
01:21:06.904 : en:01:21:06.779


Click To Enlarge Image










Sharing Widget


No Comments For This Torrent . Be The First to Comment

You must Login to Comment . Click Here to Login

Menu 1

Some content in menu 1.

10x10 2018 1080p BluRay AC3 5 1 x264 [MW] (Size: 2.0 GB)
  10x10 2018 1080p BluRay AC3 5 1 x264 [MW] 2.0 GB
tracker name
udp://tracker.leechers-paradise.org:6969/announce
udp://zer0day.ch:1337/announce
udp://open.demonii.com:1337/announce
udp://tracker.coppersurfer.tk:6969/announce
udp://exodus.desync.com:6969/announce
µTorrent compatible trackers list

Relative Torrents

Torrent Name Size Age SEED LEECH
Australian Survivor S05E09 WEBRip+1080p DTV h264-CRR
Posted by    CopyRightR   in   TV
2.4 GB 4 minutes 33 772
The Last Sharknado Its About Time 2018 HRip XviD AC3-EVO
Posted by    Silmarillion   in   Movies
1.4 GB 5 minutes 375 252
The Little Mermaid 2018 HDRip XviD AC3-EO
Posted by    Silmarillion   in   Movies
1.4 GB 5 minutes 612 295
State of Mind [ V1 1 24167 + MULTi12] - orePack
Posted by    emadmoner   in   Games
4.3 GB 11 minutes 419 509
Android - Only Paid Apps- Week 33 2018 AndroGalaxy]
Posted by    Mafiasss   in   Applications
3.6 GB 14 minutes 375 391